Halo Legends(2010)(BDRIP)(CASTELLANO)(1 Link Megaupload)


Image and video hosting by TinyPic


AÑO: 2010
DURACIÓN: 112 min.
PAÍS: Japón
DIRECTOR: Shinji Aramaki, Mamoru Oshii, Daisuke Nishio, Frank O Connor, Hideki Futamura, Hiroshi Yamazaki, Koji Sawai
GUIÓN: Daisuke Nishio, Frank O Connor, Hiroshi Yamazaki, Dai Sato, Eiji Umehara
FOTOGRAFÍA: Animation
PRODUCTORA: Coproducción Japón-EEUU;
GENERO: Animación. Ciencia-Ficción. Acción.


Image and video hosting by TinyPic


Adaptación al anime de la saga de videojuegos Halo, en un movimiento similar a Animatrix o Batman Gotham Knight, mediante siete cortos de entre 10-15 minutos de duración cada uno producidos por algunos de los estudios de animación más importantes de Japón. Dirigidos por prestigiosos directores como Shinji Aramaki (Appleseed) y Mamoru Oshii (Ghost in the Shell).
Esta magnífica saga de ciencia ficción profundiza en el rico universo del mundo Halo con siete excitantes historias que se centran en el
misterioso origen del Jefe Maestro, la capacidad superior para el combate de los Spartans y la tensa rivalidad entre los Spartans y los
Orbital Drop Soc Troopers (ODSTs). Creada en colaboración con algunos de los más famosos estudios japoneses del mundo de la
animación, Halo Legends te sumerge en el centro de la batalla de la humanidad contra el Covenant. Descrita dinámicamente con
un innovador estilo de animación, te ofrece una apasionante aventura y una impactante imagen visual que te dejará sin respiración.

ESTAN TODOS JUNTOS EN UN FICHERO AVI

8 ovas +intro+creditos

00- Intro
01-Origenes1
02-Origenes2
03-El duelo
04-La vuelta a casa
05-La excepcion
06-Prototipo
07-Babysitter
08-El paquete
99-Creditos



Image and video hosting by TinyPic

DATOS DEL RIPEO

General
Format : AVI
Format/Info : Audio Video Interleave
File size : 972 MiB
Duration : 1h 59mn
Overall bit rate : 1 139 Kbps

Video
ID : 0
Format : MPEG-4 Visual
Format profile : Simple@L1
Format settings, BVOP : No
Format settings, QPel : No
Format settings, GMC : No warppoints
Format settings, Matrix : Default (H.263)
Codec ID : DIVX
Codec ID/Info : Project Mayo
Codec ID/Hint : DivX 4
Duration : 1h 59mn
Bit rate : 999 Kbps
Width : 640 pixels
Height : 360 pixels
Display aspect ratio : 16:9
Frame rate : 24.000 fps
Resolution : 24 bits
Colorimetry : 4:2:0
Scan type : Progressive
Bits/(Pixel*Frame) : 0.181
Stream size : 852 MiB (88%)
Writing library : avc2.0.11.1110

Audio
ID : 1
Format : MPEG Audio
Format version : Version 1
Format profile : Layer 3
Codec ID : 55
Codec ID/Hint : MP3
Duration : 1h 59mn
Bit rate mode : Constant
Bit rate : 128 Kbps
Channel(s) : 2 channels
Sampling rate : 44.1 KHz
Resolution : 16 bits
Stream size : 109 MiB (11%)
Alignment : Aligned on interleaves
Interleave, duration : 26 ms (0.63 video frame)
Writing library : LAME3.96.1


Image and video hosting by TinyPic








Image and video hosting by TinyPic

http://www.megaupload.com/?d=BXZQDL5Y

Image and video hosting by TinyPic

PASS PARA DESCOMPRIMIR: http://warezkenneth1.blogspot.com/



Written by

0 comentarios: