El Zorro y el Sabueso 2 - Español Latino - DVD-Rip




TITULO ORIGINAL The fox and the hound 2
OTROS TÍTULOS El zorro y el sabueso 2
DIRECCIÓN Jim Kammerud
REPARTO Animación
AÑO 2006
PAÍS Estados Unidos
PRODUCTORA DisneyToon Studios / Toon City Inc.
GENERO Animación


General
Complete name : F:\El.zorro.y.el.sabueso.2.avi
Format : AVI
Format/Info : Audio Video Interleave
File size : 700 MiB
Duration : 1h 9mn
Overall bit rate : 1 412 Kbps
Writing application : VirtualDubMod 1.5.4.1 (build 2178/release)
Writing library : VirtualDubMod build 2178/release

Video
ID : 0
Format : MPEG-4 Visual
Format profile : Advanced Simple@L5
Format settings, BVOP : Yes
Format settings, QPel : No
Format settings, GMC : No warppoints
Format settings, Matrix : Custom
Codec ID : XVID
Codec ID/Hint : XviD
Duration : 1h 9mn
Bit rate : 1 284 Kbps
Width : 720 pixels
Height : 400 pixels
Display aspect ratio : 16:9
Frame rate : 23.976 fps
Color space : YUV
Chroma subsampling : 4:2:0
Bit depth : 8 bits
Scan type : Progressive
Bits/(Pixel*Frame) : 0.186
Stream size : 637 MiB (91%)
Writing library : XviD 1.2.0.dev47 (UTC 2006-11-01)

Audio
ID : 1
Format : MPEG Audio
Format version : Version 1
Format profile : Layer 3
Mode : Joint stereo
Mode extension : MS Stereo
Codec ID : 55
Codec ID/Hint : MP3
Duration : 1h 9mn
Bit rate mode : Variable
Bit rate : 115 Kbps
Nominal bit rate : 128 Kbps
Channel(s) : 2 channels
Sampling rate : 48.0 KHz
Stream size : 57.2 MiB (8%)
Alignment : Aligned on interleaves
Interleave, duration : 24 ms (0.58 video frame)
Interleave, preload duration : 159 ms
Writing library : LAME3.97
Encoding settings : -m j -V 4 -q 2 -lowpass 17 --abr 128
Language : Spanish





Tod y Toby siguen con sus travesuras de siempre. Toby, en busca de si mismo, decide ir a la Feria del condado sin que su amo lo sepa. Allí conocerá bastante amigos, el cual hace a Tod celoso.














http://www.megaupload.com/?d=3QI7CTGJ
http://www.megaupload.com/?d=OJ400HQ0
http://www.megaupload.com/?d=IO3NE1TW
http://www.megaupload.com/?d=QW25AL7Y
http://www.megaupload.com/?d=WQEQ4ELU
http://www.megaupload.com/?d=YMU2CJST
http://www.megaupload.com/?d=EGINRPO0
http://www.megaupload.com/?d=R7F5A120



si les sale un mensaje como en la imagen es un problema temporal de megaupload y contra eso no se puede hacer nada pero eso se soluciona despues de una hora o puede que antes eso pasa cuando la subida es fresca saludos...
aqui el ejemplo...



Written by

0 comentarios: