Beneath The Blue [2010][DVDRip][Subs Español](GigaSize)




En las aguas azules de las Bahamas , un lindo turista (Paul Wesley) se enamora de una chica que trabaja en un instituto de investigación que pueden comunicarse con los delfines. Sin embargo, los experimentos son algo peligrosos, que pueden resultar matando a la población local de los delfines, poniendo en peligro el futuro de la pareja y el tiempo se está agotando. Un grupo muy unido de amigos y la familia sólo tienen una oportunidad de salvar a estas criaturas hermosas e inteligentes de la destrucción.

TITULO ORIGINAL: Beneath the blue
GENERO: Drama
DURACION: 92 Minutos
AÑO: 2010

REPARTO: Paul Wesley, Caitlin Wachs and David Keith


Format : AVI
Format/Info : Audio Video Interleave
File size : 698 MiB
Duration : 1h 32mn
Overall bit rate : 1 056 Kbps
Movie name : Beneath.The.Blue.DVDR.NTSC.Sub.Title1.DVDRip
Writing application : Lavf52.33.0
Original source form/Name : Beneath.The.Blue.DVDR.NTSC.Sub
Video #0
ID : 0
Format : MPEG-4 Visual
Format profile : Simple@L3
Format settings, BVOP : No
Format settings, QPel : No
Format settings, GMC : No warppoints
Format settings, Matrix : Default (H.263)
Codec ID : XVID
Codec ID/Hint : XviD
Duration : 1h 32mn
Bit rate : 726 Kbps
Width : 656 pixels
Height : 366 pixels
Display aspect ratio : 16:9
Frame rate : 25.000 fps
Resolution : 24 bits
Colorimetry : 4:2:0
Scan type : Progressive
Bits/(Pixel*Frame) : 0.121
Stream size : 479 MiB (69%)
Writing library : XviD 1.2.1 (UTC 2008-12-04)
Audio #1
ID : 1
Format : AC-3
Format/Info : Audio Coding 3
Codec ID : 2000
Duration : 1h 32mn
Bit rate mode : Constant
Bit rate : 320 Kbps
Channel(s) : 6 channels
Channel positions : Front: L C R, Surround: L R, LFE
Sampling rate : 48.0 KHz
Stream size : 212 MiB (30%)
Alignment : Aligned on interleaves
Interleave, duration : 32 ms (0.80 video frame)
Interleave, preload duration : 32 ms








Image and video hosting by TinyPic


Beneath.The.Blue.DVDrip.2010.VOSE.rar, Size 697.97 MB…

GigaSize.com: Host and Share your Files | Beneath.The.Blue.DVDrip.2010.VOSE.rar
mirror
GigaSize.com: Host and Share your Files | Beneath.The.Blue.DVDrip.2010.VOSE.rar

Image and video hosting by TinyPic

PASS PARA DESCOMPRIMIR: http://warezkenneth1.blogspot.com/




Written by

0 comentarios: